Fifty Shades Freed Torrent

/ Comments off



Fifty Shades Freed (2018) IMDB

Torrent Fifty Shades Freed

Fifty Shades Freed (2018) Unrated (1080p BDRip x265 10bit DTS-HD MA 5.1 - WEM)TAoE.mkv torrent download - ExtraTorrent.ag. 【720p高清中文字幕】五十度飞 Fifty Shades Freed迅雷. 【1080p超清中文字幕】五十度飞 Fifty Shades Freed迅雷下载.2018.4.46GB.torrent.

Fifty Shades Freed Torrent


Media Information


General
Unique ID : 303169789657202475479010034838591562555 (0xE41460AB46394C38B09D5F3DE69CE33B)
Complete name : Fifty Shades Freed (2018) Unrated (1080p BDRip x265 10bit DTS-HD MA 5.1 - WEM)[TAoE].mkv
Format : Matroska
Format version : Version 4
File size : 5.76 GiB
Duration : 1 h 50 min
Overall bit rate mode : Variable
Overall bit rate : 7 483 kb/s
Writing application : Lavf58.45.100
Writing library : Lavf58.45.100
ErrorDetectionType : Per level 1
Video
ID : 1
Format : HEVC
Format/Info : High Efficiency Video Coding
Format profile : Main [email protected]@Main
Codec ID : V_MPEGH/ISO/HEVC
Duration : 1 h 50 min
Bit rate : 4 067 kb/s
Width : 1 920 pixels
Height : 800 pixels
Display aspect ratio : 2.40:1
Frame rate mode : Constant
Frame rate : 23.976 (24000/1001) FPS
Color space : YUV
Chroma subsampling : 4:2:0
Bit depth : 10 bits
Bits/(Pixel*Frame) : 0.110
Stream size : 3.13 GiB (54%)
Title : Encoded by WEM for TAoE using Shinguru V2.0
Writing library : x265 3.4+2-73ca1d7be377:[Windows][GCC 10.2.1][64 bit] 10bit
Encoding settings : cpuid=1111039 / frame-threads=4 / numa-pools=24 / wpp / no-pmode / no-pme / no-psnr / no-ssim / log-level=2 / input-csp=1 / input-res=1920x800 / interlace=0 / total-frames=0 / level-idc=0 / high-tier=1 / uhd-bd=0 / ref=4 / no-allow-non-conformance / no-repeat-headers / annexb / no-aud / no-hrd / info / hash=0 / no-temporal-layers / open-gop / min-keyint=23 / keyint=250 / gop-lookahead=0 / bframes=8 / b-adapt=2 / b-pyramid / bframe-bias=0 / rc-lookahead=80 / lookahead-slices=4 / scenecut=40 / hist-scenecut=0 / radl=0 / no-splice / no-intra-refresh / ctu=64 / min-cu-size=8 / no-rect / no-amp / max-tu-size=32 / tu-inter-depth=1 / tu-intra-depth=1 / limit-tu=0 / rdoq-level=2 / dynamic-rd=0.00 / no-ssim-rd / signhide / no-tskip / nr-intra=0 / nr-inter=0 / no-constrained-intra / no-strong-intra-smoothing / max-merge=3 / limit-refs=3 / limit-modes / me=3 / subme=5 / merange=57 / temporal-mvp / no-frame-dup / no-hme / weightp / no-weightb / no-analyze-src-pics / deblock=0:0 / sao / no-sao-non-deblock / rd=4 / selective-sao=4 / no-early-skip / rskip / no-fast-intra / no-tskip-fast / no-cu-lossless / no-b-intra / no-splitrd-skip / rdpenalty=0 / psy-rd=1.30 / psy-rdoq=2.00 / no-rd-refine / no-lossless / cbqpoffs=0 / crqpoffs=0 / rc=crf / crf=18.0 / qcomp=0.60 / qpstep=4 / stats-write=0 / stats-read=0 / ipratio=1.40 / pbratio=1.30 / aq-mode=4 / aq-strength=1.10 / cutree / zone-count=0 / no-strict-cbr / qg-size=32 / no-rc-grain / qpmax=69 / qpmin=0 / no-const-vbv / sar=1 / overscan=0 / videoformat=5 / range=0 / colorprim=2 / transfer=2 / colormatrix=2 / chromaloc=0 / display-window=0 / cll=0,0 / min-luma=0 / max-luma=1023 / log2-max-poc-lsb=8 / vui-timing-info / vui-hrd-info / slices=1 / no-opt-qp-pps / no-opt-ref-list-length-pps / no-multi-pass-opt-rps / scenecut-bias=0.05 / hist-threshold=0.01 / no-opt-cu-delta-qp / no-aq-motion / no-hdr10 / no-hdr10-opt / no-dhdr10-opt / no-idr-recovery-sei / analysis-reuse-level=0 / analysis-save-reuse-level=0 / analysis-load-reuse-level=0 / scale-factor=0 / refine-intra=0 / refine-inter=0 / refine-mv=1 / refine-ctu-distortion=0 / no-limit-sao / ctu-info=0 / no-lowpass-dct / refine-analysis-type=0 / copy-pic=1 / max-ausize-factor=1.0 / no-dynamic-refine / no-single-sei / no-hevc-aq / no-svt / no-field / qp-adaptation-range=1.00 / no-scenecut-aware-qpconformance-window-offsets / right=0 / bottom=0 / decoder-max-rate=0
Language : English
Default : Yes
Forced : No
Color range : Limited
Audio
ID : 2
Format : DTS XLL X
Format/Info : Digital Theater Systems
Commercial name : DTS-HD Master Audio
Codec ID : A_DTS
Duration : 1 h 50 min
Bit rate mode : Variable
Bit rate : 3 315 kb/s
Channel(s) : 8 channels
Channel(s)_Original : Object Based
ChannelLayout_Original : Object Based
Sampling rate : 48.0 kHz
Frame rate : 93.750 FPS (512 SPF)
Bit depth : 24 bits
Stream size : 2.55 GiB (44%)
Language : English
Default : Yes
Forced : No
Text #1
ID : 3
Format : PGS
Codec ID : S_HDMV/PGS
Codec ID/Info : Picture based subtitle format used on BDs/HD-DVDs
Duration : 1 h 43 min
Bit rate : 39.3 kb/s
Count of elements : 3150
Stream size : 29.2 MiB (0%)
Title : SDH
Language : English
Default : No
Forced : No
Text #2
ID : 4
Format : PGS
Codec ID : S_HDMV/PGS
Codec ID/Info : Picture based subtitle format used on BDs/HD-DVDs
Duration : 1 h 49 min
Bit rate : 28.7 kb/s
Count of elements : 2721
Stream size : 22.5 MiB (0%)
Title : Canadian
Language : French
Default : No
Forced : No
Text #3
ID : 5
Format : PGS
Codec ID : S_HDMV/PGS
Codec ID/Info : Picture based subtitle format used on BDs/HD-DVDs
Duration : 1 h 49 min
Bit rate : 28.3 kb/s
Count of elements : 2735
Stream size : 22.1 MiB (0%)
Title : Latin American
Language : Spanish
Default : No
Forced : No
Menu
00:00:00.000 : :Chapter 1
00:05:32.958 : :Chapter 2
00:13:26.264 : :Chapter 3
00:21:26.160 : :Chapter 4
00:26:51.860 : :Chapter 5
00:30:39.546 : :Chapter 6
00:34:15.428 : :Chapter 7
00:39:07.345 : :Chapter 8
00:43:25.186 : :Chapter 9
00:49:14.660 : :Chapter 10
00:53:16.360 : :Chapter 11
00:57:47.005 : :Chapter 12
01:01:28.268 : :Chapter 13
01:07:16.532 : :Chapter 14
01:14:46.649 : :Chapter 15
01:20:35.330 : :Chapter 16
01:28:10.368 : :Chapter 17
01:33:12.712 : :Chapter 18
01:37:56.996 : :Chapter 19
01:43:46.428 : :Chapter 20

Source Information It' s not about the coffee pdf free download windows 10.


General
Unique ID : 127128877416126093891984934442911666324 (0x5FA421951769F2D0F968EE2D43F81094)
Complete name : Fifty.Shades.Freed.2018.Unrated.1080p.BluRay.REMUX.AVC.DTS-X-EPSiLON.mkv
Format : Matroska
Format version : Version 4
File size : 24.1 GiB
Duration : 1 h 50 min
Overall bit rate mode : Variable
Overall bit rate : 31.3 Mb/s
Encoded date : UTC 2018-04-29 22:37:25
Writing application : mkvmerge v22.0.0 ('At The End Of The World') 64-bit
Writing library : libebml v1.3.5 + libmatroska v1.4.8
Video
ID : 1
Format : AVC
Format/Info : Advanced Video Codec
Format profile : [email protected]
Format settings : CABAC / 4 Ref Frames
Format settings, CABAC : Yes
Format settings, Reference frames : 4 frames
Codec ID : V_MPEG4/ISO/AVC
Duration : 1 h 50 min
Bit rate mode : Variable
Bit rate : 27.9 Mb/s
Maximum bit rate : 33.0 Mb/s
Width : 1 920 pixels
Height : 1 080 pixels
Display aspect ratio : 16:9
Frame rate mode : Constant
Frame rate : 23.976 (24000/1001) FPS
Color space : YUV
Chroma subsampling : 4:2:0
Bit depth : 8 bits
Scan type : Progressive
Bits/(Pixel*Frame) : 0.561
Stream size : 21.5 GiB (89%)
Title : MPEG-4 AVC Video / 28031 kbps / 1080p / 23.976 fps / 16:9 / High Profile 4.1
Language : English
Default : Yes
Forced : No
Audio
ID : 2
Format : DTS XLL X
Format/Info : Digital Theater Systems
Commercial name : DTS-HD Master Audio
Codec ID : A_DTS
Duration : 1 h 50 min
Bit rate mode : Variable
Bit rate : 3 315 kb/s
Channel(s) : 8 channels
Channel(s)_Original : Object Based
ChannelLayout_Original : Object Based
Sampling rate : 48.0 kHz
Frame rate : 93.750 FPS (512 SPF)
Bit depth : 24 bits
Stream size : 2.55 GiB (11%)
Language : English
Default : Yes
Forced : No
Text #1
ID : 3
Format : PGS
Codec ID : S_HDMV/PGS
Codec ID/Info : Picture based subtitle format used on BDs/HD-DVDs
Duration : 1 h 43 min
Bit rate : 39.3 kb/s
Count of elements : 3150
Stream size : 29.2 MiB (0%)
Title : SDH
Language : English
Default : No
Forced : No
Text #2
ID : 4
Format : PGS
Codec ID : S_HDMV/PGS
Codec ID/Info : Picture based subtitle format used on BDs/HD-DVDs
Duration : 1 h 49 min
Bit rate : 28.7 kb/s
Count of elements : 2721
Stream size : 22.5 MiB (0%)
Title : Canadian
Language : French
Default : No
Forced : No
Text #3
ID : 5
Format : PGS
Codec ID : S_HDMV/PGS
Codec ID/Info : Picture based subtitle format used on BDs/HD-DVDs
Duration : 1 h 49 min
Bit rate : 28.3 kb/s
Count of elements : 2735
Stream size : 22.1 MiB (0%)
Title : Latin American
Language : Spanish
Default : No
Forced : No
Menu
00:00:00.000 : en:Chapter 1
00:05:32.958 : en:Chapter 2
00:13:26.264 : en:Chapter 3
00:21:26.160 : en:Chapter 4
00:26:51.860 : en:Chapter 5
00:30:39.546 : en:Chapter 6
00:34:15.428 : en:Chapter 7
00:39:07.345 : en:Chapter 8
00:43:25.186 : en:Chapter 9
00:49:14.660 : en:Chapter 10
00:53:16.360 : en:Chapter 11
00:57:47.005 : en:Chapter 12
01:01:28.268 : en:Chapter 13
01:07:16.532 : en:Chapter 14
01:14:46.649 : en:Chapter 15
01:20:35.330 : en:Chapter 16
01:28:10.368 : en:Chapter 17
01:33:12.712 : en:Chapter 18
01:37:56.996 : en:Chapter 19
01:43:46.428 : en:Chapter 20

Fifty Shades Freed Torrent
#Goki -> To avoid fakes, ALWAYS check that the torrent was added on ExtraTorrents.it by Goki

Fifty Shades Freed Torrentz2

https://ExtraTorrents.it/